#TITLE:Soapy Bubble;
#SUBTITLE:With a new improved Standard for KEPO!;
#ARTIST:Fragmentz;
#TITLETRANSLIT:;
#SUBTITLETRANSLIT:;
#ARTISTTRANSLIT:;
#CREDIT:;
#BANNER:sbbn.jpg;
#BACKGROUND:sbbg.jpg;
#LYRICSPATH:;
#CDTITLE:bmx0ant.png;
#MUSIC:Soapy Bubble.mp3;
#OFFSET:-0.020;
#SAMPLESTART:61.224;
#SAMPLELENGTH:11.980;
#SELECTABLE:YES;
#DISPLAYBPM:141.000;
#BPMS:0.000=141.000;
#STOPS:;
#BGCHANGES:;
// cache tags:
#FIRSTBEAT:16.000;
#LASTBEAT:253.125;
#SONGFILENAME:Songs/Music V.I.P ^_^/Soapy Bubble/Soapy Bubble.sm;
#HASMUSIC:1;
#HASBANNER:1;
#MUSICLENGTH:107.363;
// end cache tags

//---------------dance-single - BETA STEPS----------------
#NOTES:
     dance-single:
     BETA STEPS:
     Hard:
     8:
     0.508,0.535,0.177,0.205,0.238,341.000,19.000,22.000,12.000,0.000:





0000
0000
0000
0000
,
0000
0000
0000
0000
,
0000
0000
0000
0000
,
0000
0000
0000
0000
,
0001
0000
0010
0001
0020
0000
0000
0000
0031
0000
0000
0000
0110
0000
0000
0000
,
0100
0000
1000
0100
2000
0000
0000
0000
3100
0000
0000
0000
1001
0000
0000
0000
,
0100
0000
0010
0100
0020
0000
0000
0000
0130
0000
0000
0000
1001
0000
0000
0000
,
0001
0000
0010
0001
0020
0000
0000
0000
0130
0000
0000
0000
1100
0000
0000
0000
,
0001
0000
0010
0000
0001
0000
0100
0000
0010
0000
0100
0010
0100
0000
0000
0000
,
0100
0000
1000
0000
0100
0000
0001
0000
0010
0000
0100
0010
0100
0000
0000
0000
,
1000
0010
0100
0010
0001
0010
1000
0100
,
0010
0100
1000
0010
0001
0000
2100
0000
,
3010
0000
0001
0000
0010
0000
0001
0000
0010
0000
0001
0010
0000
0001
0000
0010
,
0100
0000
0010
0000
0100
0000
0010
0000
0100
0000
0010
0100
0000
0010
0000
0100
,
0001
0000
1000
0000
0001
0000
1000
0000
0001
0000
1000
0001
0000
1000
0000
0001
,
0010
0000
0001
0000
0010
0000
0001
0000
0010
0000
0001
0100
0000
0010
0000
0100
,
0001
0001
0010
0100
1000
1000
0100
0010
,
0001
0001
0010
0100
1000
1000
0010
0000
,
0010
0100
0001
0010
0100
1000
0100
0010
,
0200
1000
0010
1300
,
1001
0000
0000
0000
1000
0000
0000
1000
0100
0000
0000
0100
1000
0000
0000
1000
,
0001
0000
0000
0001
1000
0000
0000
1000
0100
0000
0000
0100
1000
0000
0000
1000
,
0010
0000
0000
0010
0100
0000
0000
0100
0001
0000
0000
0001
0010
0000
0000
0010
,
0001
0000
0000
0001
0100
0000
0000
0100
1000
0000
0000
1000
0100
0000
0000
0100
,
0001
0000
1000
0100
0010
0100
1000
0010
,
0001
0010
1000
0100
0010
0100
2000
0000
,
3100
0000
0001
0010
0100
0010
0001
0100
,
1000
0100
0001
0010
0100
1000
0200
0000
,
0310
0002
M000
0000
,
0M00
0000
00M0
0000
,
M000
0000
0023
000M
0M00
0000
0000
0000
,
M000
0000
0230
00M0
0000
0000
0000
0000
,
000M
0000
1300
0M01
0011
0000
0000
1000
,
1001
0000
0010
0100
0110
0000
0000
0001
,
0011
0000
0100
1000
1100
0000
0000
0100
,
0110
0000
0001
0010
0001
0100
1000
0100
,
0001
1000
0200
0000
1000
0000
0010
0000
,
1000
0000
1000
0010
,
1000
2300
0010
0100
,
0010
3020
0001
0100
,
0001
0032
0000
0000
,
0010
0020
0000
0003
,
0100
0200
0000
0030
,
1300
2000
0000
3100
,
0001
0000
0000
0000
1100
0000
0000
0000
0001
0000
0000
0001
0100
0000
0000
0100
,
1000
0000
0000
1000
0100
0000
0000
0100
0001
0000
0000
0001
0010
0000
0000
0010
,
0100
0000
0000
0100
0010
0000
0000
0010
0001
0000
0000
0001
0100
0000
0000
0100
,
1000
0000
0000
1000
0100
0000
0000
0100
0001
0000
0000
0001
0010
0000
0000
0010
,
0100
0000
1001
0000
0100
0010
0110
0000
,
0001
0010
0011
0000
1000
0010
0100
0001
,
0020
0000
0031
0000
0200
1000
1300
0000
,
0200
0010
0310
0000
0001
0010
0100
1000
,
0100
0000
0011
0000
1000
1000
1100
0000
,
0001
0001
0011
0000
1000
0100
0001
0010
,
0001
0010
0000
0010
0100
0000
0000
0000
1000
0000
0100
0000
0001
0000
0000
0000
,
0010
0001
1000
0000
0010
0100
0001
1000
,
0001
0001
0001
0000
1000
0010
0001
0010
,
1000
0010
0001
0010
1000
0001
0010
0100
,
1000
0100
0020
0000
0130
1000
0100
0010
,
0001
0100
1000
0100
0001
0010
0001
1000
,
0001
0000
00MM
0000
1000
0100
1000
0100
0000
0000
0000
0000
0000
0000
0000
0000
;

//---------------dance-single - ----------------
#NOTES:
     dance-single:
     :
     Challenge:
     10:
     0.798,0.789,0.037,0.000,0.899,596.000,4.000,0.000,17.000,0.000:





0000
0000
0000
0000
,
0000
0000
0000
0000
,
0000
0000
0000
0000
,
0000
0000
0000
0000
,
1001
0000
1000
0010
1000
0000
1000
0001
1000
0000
1000
0100
1000
0000
1000
0001
,
1000
0000
1000
0010
1000
0000
1000
0100
1000
0000
1000
0010
0100
0001
0010
0000
,
0100
0000
0010
0001
0010
0000
0010
0100
0010
0000
0010
1000
0010
0100
0010
0000
,
0010
0000
0001
1000
0001
0000
0001
0100
0001
0000
1000
0000
0010
0100
0010
0000
,
1000
0000
0100
0010
0100
0000
0100
1000
0100
0000
0100
0010
0100
0000
0100
0001
,
0100
0000
0100
0010
0100
0000
0100
1000
0100
0000
0100
0001
0100
0010
0001
0000
,
0100
0000
0010
1000
0010
0000
0010
0100
0010
0000
0010
0100
0001
0010
0100
0000
,
0010
0000
0001
1000
0001
0000
0001
0010
0001
0000
1000
0000
0010
0100
0010
0000
,
1000
0000
0100
0000
0010
0000
0001
0000
0100
0000
0010
0000
1000
0100
0010
0001
,
0010
0100
1000
0000
0001
0000
0100
0000
0010
0000
1000
0010
0100
0001
0100
0010
,
1000
0000
0100
0000
0010
0000
0100
0000
1000
0000
0001
0000
0010
0100
1000
0100
,
0010
0001
0010
0000
0100
0000
1000
0000
0001
0000
0010
0100
1000
0100
0010
0001
,
0010
0000
0100
0000
1000
0000
0010
0000
0100
0000
0001
0000
0100
1000
0100
0010
,
0001
0010
0100
0000
0001
0000
1000
0000
0100
0000
0010
1000
0010
0100
0001
0100
,
0010
0000
0001
0000
0100
0000
0010
0000
0001
0000
0010
0000
0100
1000
0100
0010
,
0001
0010
0100
0000
0001
0000
1000
0000
0100
0000
0010
0001
0010
0100
1000
0100
,
0010
0000
00MM
0000
0001
1000
0001
0000
0001
0100
0001
0000
0001
0010
0001
0000
,
0001
1000
0001
0010
0100
1000
0010
0000
0100
0001
0100
0000
0100
0010
0100
0000
,
0001
0010
000M
0010
0000
0010
0100
0000
1000
0001
1000
0000
1000
0010
1000
0000
,
1000
0100
1000
0001
0010
0100
1000
0000
0010
0100
0010
0000
0010
0001
0010
0000
,
0010
1000
0000
1000
0100
0010
0100
0000
0100
0001
0100
0000
0100
0010
0100
0000
,
0100
1000
0100
0010
0001
0100
0010
0000
0100
0001
0100
0000
0100
1000
0100
0000
,
0100
0010
0M00
0010
0000
0010
1000
0000
0100
0010
0100
0000
0100
0001
0100
0000
,
0100
0010
0001
0100
0010
1000
0100
0000
0010
0001
0100
0000
0010
1000
0001
0010
,
0100
0010
0001
0100
1000
0000
0000
0000
000M
0000
0000
0000
00M0
0000
0000
0000
,
000M
0000
0M00
0000
,
00M0
1001
0M00
0000
,
0000
1100
0000
00M0
,
0000
0000
0001
1000
0010
0001
0010
0100
,
1000
0100
0010
0001
0010
1000
0100
0010
,
0001
0010
1000
0010
0100
0001
0100
0010
,
1000
0010
0001
1000
0010
0100
0001
1000
,
0100
0010
0001
1000
0010
0000
0100
0000
0001
0000
1000
0000
0100
0000
0010
0000
,
0001
1000
0000
1000
0100
0000
0010
0000
0001
0000
0100
0000
0010
1000
0010
0000
,
0100
0001
0100
1000
0001
0100
0010
1000
,
0100
0010
0000
0010
0001
0000
0010
0000
0100
0000
1000
0000
0100
1000
0100
0000
,
0001
0100
0010
0001
1000
0010
0100
0001
,
0100
0010
0000
0010
1000
0000
0001
0000
0010
0000
0100
0000
1000
0001
1000
0000
,
0010
0100
0001
0010
0100
1000
0001
0100
,
0010
1000
0000
1000
0100
0000
0010
0000
0001
0000
1000
0000
0010
0100
0010
0000
,
1000
0001
1000
0100
1000
0000
MM00
0000
1000
0100
0010
0000
0010
0001
0100
0000
,
0100
1000
0100
0000
0100
0001
1000
0100
0010
0001
0100
0000
0100
0010
1000
0000
,
1000
0001
0010
0000
0010
1000
00M0
1000
0000
1000
0010
0000
0010
0001
0100
0000
,
0100
1000
0100
0000
0100
0001
1000
0010
0100
0001
0010
0000
0010
0100
1000
0000
,
1000
0100
0001
0000
0001
0100
0000
0100
0010
0001
0100
0000
0100
0010
0001
0000
,
0001
0010
1000
0000
1000
0001
0010
0100
0010
0001
0100
0000
0100
0001
0010
0000
,
0010
0100
1000
0000
1000
0010
M000
0010
0000
0010
0100
0000
0100
0001
1000
0000
,
1000
0100
0010
0000
0010
0001
0100
1000
0100
0001
0010
0000
0010
0100
1000
0000
,
1000
0010
0100
0001
1000
0100
0001
0100
1000
0100
0001
0000
0001
0100
0010
0000
,
0010
1000
0010
0000
0010
0001
1000
0010
0100
1000
0100
0000
0100
0001
0100
0000
,
0100
0010
0001
0000
0001
0010
000M
0010
0000
0010
0001
0000
0001
1000
0100
0000
,
0100
0010
1000
0000
1000
0010
0001
0010
0100
1000
0100
0000
0100
0001
0010
0000
,
0010
0001
0100
0000
0100
1000
0000
1000
0100
0001
0010
0000
0010
1000
0100
0000
,
0100
1000
0010
0000
0010
0001
0100
1000
0100
0001
0010
0000
0010
1000
0010
0000
,
0010
0100
1000
0000
1000
0001
M000
0001
0000
0001
0100
0000
0100
1000
0100
0000
,
0100
0001
0010
0000
0010
0100
1000
0010
0001
0010
1000
0000
1000
0100
0010
0000
,
0001
0100
0010
1000
0100
0010
0001
0100
1001
0000
0000
0000
0000
0000
0000
0000
;

//---------------dance-single - ----------------
#NOTES:
     dance-single:
     :
     Edit:
     1:
     0.000,0.000,0.000,0.000,0.000,0.000,0.000,0.000,0.000,0.000:


;

//---------------dance-single - Standard for Kep!----------------
#NOTES:
     dance-single:
     Standard for Kep!:
     Medium:
     13:
     1.000,1.000,1.000,0.279,1.000,775.000,240.000,30.000,163.000,36.000:

0000
0000
0000
0000
,
0000
0000
0000
0000
,
0000
0000
0000
0000
,
0000
0000
0000
0000
,
1000
0000
0011
0100
0011
0000
0110
1000
0110
0000
0100
1010
0100
0000
0011
0100
,
0011
0000
0100
1010
0100
0000
1001
0100
1010
0000
0101
0000
1010
1010
1010
0000
,
0002
0000
1000
0100
1000
0000
0010
0100
0010
0000
1000
0100
1000
0000
0100
1013
,
0100
0000
0001
0110
0001
0000
1000
0011
1000
0000
0110
0000
1010
1010
2010
0000
,
3022
0033
0100
0011
0100
0000
1010
0011
1010
0000
0110
0011
0110
0000
1100
0110
,
1100
0000
0011
0110
0011
0000
1100
0110
1100
0000
0110
0000
1001
1001
1001
0000
,
1000
0100
1000
0001
0010
0001
0100
0010
0100
1000
0100
1000
0001
0010
0001
0100
,
0010
0000
0100
0000
0001
0000
0010
0000
0001
0000
1000
0000
0100
0000
1000
0000
0010
0001
0010
1000
0100
1000
0001
0010
0001
0100
0010
0100
1000
0100
2000
0000
,
0011
0011
0011
0000
0011
0011
0011
0000
0011
0011
0011
0000
0011
0011
0011
0011
,
3011
0011
0012
0000
1100
1100
1100
0000
1100
1100
1100
0000
1100
1100
0000
1100
,
0000
1100
1103
0000
0011
0110
1100
0000
1100
0110
0011
0000
1100
0110
1100
0110
,
0011
0110
0110
0000
1100
1100
2100
0000
0011
0011
0000
0011
0000
0011
3011
0000
,
0100
0010
1100
0001
0010
1100
0010
0001
0110
1000
0100
0011
0100
1000
0110
0001
,
1000
0110
0001
1000
0101
0010
1000
0101
0010
1000
0101
0010
1000
0110
0001
0010
,
1100
0010
0001
1100
0010
0100
0110
0001
1000
0110
0001
1000
0110
0001
1000
0110
,
0001
0000
0000
0000
0000
0000
0000
0000
0000
0000
0000
0000
1000
0000
0000
0000
0000
0000
0000
0000
0000
0000
0000
0000
0110
0000
0000
0000
0000
0000
0000
0000
0000
0000
0000
0000
1000
0000
0000
0000
0000
0000
0000
0000
0000
0000
0000
0000
0100
0000
0000
0000
0000
0000
0000
0000
0000
0000
0000
0000
0011
0000
0000
0000
0000
0000
0000
0000
0000
0000
0000
0000
0100
0000
0000
0000
0000
0000
0000
0000
0000
0000
0000
0000
1000
0000
0000
0000
0000
0000
0000
0000
0000
0000
0000
0000
0010
0000
0000
0000
0000
0000
0100
0000
0000
0000
0000
0000
0010
0000
0000
0000
0000
0000
0100
0000
0000
0000
0000
0000
M01M
0000
0000
0000
0000
0000
0100
0000
M00M
0000
0000
0000
0010
0000
0000
0000
M00M
0000
0100
0000
0000
0000
0000
0000
M01M
0000
0000
0000
0000
0000
0100
0000
M00M
0000
0000
0000
0010
0000
0000
0000
M00M
0000
0100
0000
0000
0000
0000
0000
M01M
0000
0000
0000
0000
0000
0100
0000
M00M
0000
0000
0000
0010
0000
0000
0000
M00M
0000
0100
0000
0000
0000
0000
0000
,
M01M
0000
0000
0000
0000
0000
0000
0000
1100
0110
0011
1100
0110
0011
1100
0110
,
0011
0001
0001
0000
1000
1000
1000
0000
0010
0010
0010
0000
1000
0100
0010
0001
,
0100
0100
0100
0000
0001
0001
0001
0000
1000
1000
1000
0000
0010
0010
0010
0010
,
1000
1000
1000
0000
0100
0100
0100
0000
0010
0010
0010
0000
0001
0001
0001
0001
,
0001
0001
0001
0000
1000
0100
0010
0000
0001
0010
0100
0000
1000
0100
0010
0010
,
0101
0010
0101
0000
1010
0100
1010
0000
0110
0001
0110
0000
1100
0010
1100
0110
,
0011
0100
0011
0000
0100
1010
0100
0000
0010
0101
0010
0000
1100
0010
1100
0010
,
0001
0110
0001
0000
1100
0010
1100
0000
0001
0010
0100
0000
1010
0100
1010
0100
,
1000
0000
0100
0000
0010
0000
0000
0000
0110
0000
0010
0000
0110
0000
0000
0000
0001
0010
0001
1000
0100
1000
0010
0100
0010
0001
0010
0001
1000
0100
0010
0001
,
2010
0000
0M00
00M0
000M
00M0
0M00
00M0
000M
00M0
0M00
00M0
000M
00M0
0M00
00M0
000M
00M0
0M00
00M0
000M
00M0
0M00
00M0
000M
00M0
0MM0
00M0
000M
0M00
00M0
000M
,
00M0
0M00
00M0
000M
00M0
0M00
00M0
000M
00M0
0M00
00M0
000M
00M0
0M00
00M0
000M
00M0
0M00
00M0
000M
00M0
0M00
00M0
000M
00M0
0M00
00M0
000M
00M0
0M00
00MM
00M0
,
3MM2
M000
0MM0
MMM0
00M0
0MM0
MMM0
MMM0
0000
MMM0
MMM0
MMM0
0000
MMM0
MMM0
MMM0
0M00
MMM0
0000
0000
MMM0
0000
0000
0000
0M00
0000
M0M0
0000
0M00
0000
MMM0
0000
,
M2M0
0000
0000
M0M0
M0M0
0000
M0M0
0000
M0M0
0000
0000
0000
M0M0
0000
0000
0000
M0M0
0000
0000
0000
M0M0
0000
0000
0000
M0M0
0000
0000
0000
M0M0
0000
0000
0000
M0M0
M0M0
0000
0000
M0M0
0000
0000
0000
M0M0
0000
0000
0000
M0M0
0000
0000
0000
,
1313
0000
0110
0000
0101
0000
0110
0001
0010
0001
1010
0001
0010
0000
1100
0000
,
0001
0010
0001
1100
0010
0001
0100
0010
0100
0010
0101
0000
0100
1000
0100
0010
,
0100
0010
1010
0100
0010
0100
0011
0000
1010
0100
0010
1100
0011
0100
0010
0100
,
0010
0000
0100
0000
0020
0000
0230
0000
0320
0000
0030
0000
0100
0000
0010
0000
0100
0010
0100
0010
0100
0000
0010
0000
0100
0000
0010
0100
0010
0100
0010
0100
,
0010
0100
0000
0000
0001
0000
0000
0000
1000
0000
0000
0000
0110
0000
0110
0000
0110
0000
0000
0000
1100
0000
0110
0000
0011
0000
1100
0000
0110
0000
0011
0000
,
1100
0110
0011
0000
0100
0100
0100
0010
0001
1000
0010
0100
0001
0200
0320
0032
,
2003
0000
0100
0000
0100
0000
0010
0001
0010
0000
0100
0010
0001
0010
0100
3010
,
0002
0000
1000
0000
1000
0000
0010
0100
0010
0000
1000
0100
0010
0100
1000
0100
,
0010
0100
1000
0103
0010
0001
0010
0100
1000
0100
0010
0001
0010
0100
1000
0100
,
1000
0001
0010
0001
1000
0100
1000
0001
0100
0001
1000
0010
1000
0001
0100
0001
,
0010
1000
0010
0100
0001
1000
0010
0100
0001
1000
0010
0100
0001
1000
0010
0100
,
1000
0000
0001
0000
0100
0000
0010
0000
0001
0000
1000
0000
0010
0000
0100
0000
0001
0010
0001
1000
0100
1000
0001
0010
0001
0100
0010
0100
1000
0100
1000
0100
,
0020
0000
0000
0000
0000
0000
0000
0000
0100
0100
0100
0100
0100
0100
0100
0100
,
0001
1030
0010
0000
0001
0100
0001
0000
1000
0010
1000
0000
0110
0011
1100
0110
,
0101
1010
0110
0000
0011
0110
0011
0000
1100
0110
1100
0000
0010
0001
0010
0100
,
1000
0010
0010
0000
0100
1010
0100
0000
0010
0101
0010
0000
2000
0100
0010
0001
,
0010
3100
0010
0000
0100
0011
0100
0000
0011
1000
0110
0000
0011
0110
1100
0011
,
0110
1100
0011
0000
1000
0100
1000
0000
0001
0010
0001
0000
0100
0010
0100
0010
,
0001
1000
0001
0000
1100
0010
1100
0000
0001
0110
0001
0000
1100
1100
1100
1100
,
0010
0001
0010
0000
0100
0010
0100
0000
0001
0010
0001
0000
0110
0110
0110
1001
,
0110
1001
0110
0000
1100
1100
1100
0000
0011
0011
0011
0000
0110
0110
0110
0110
,
0002
1000
0020
0000
1003
0100
2030
0000
0100
0010
3200
0000
0010
0001
1300
0101
,
0101
0101
0102
0000
1000
0100
1000
0000
0100
0010
0100
0003
1000
0100
0010
0001
,
1100
1100
1100
0000
0011
0110
1100
0000
0011
0110
1100
0000
1100
0110
1100
0110
,
0011
0110
0011
0000
1000
0110
1000
0000
0001
0110
0001
0000
0110
1000
0110
0020
,
1130
0001
0110
0000
2000
0010
0001
0010
0100
0010
0001
0010
0100
0010
0001
0010
,
0100
0010
0001
0010
0100
0010
0001
0010
0100
0010
0001
0010
0100
0010
0001
0010
,
0100
0020
3001
1000
0100
1000
0001
0100
0001
1000
0100
1000
0001
0100
0001
1000
,
0100
0000
1000
0000
0001
0000
0100
0000
0001
0000
1000
0000
0100
0000
0001
0000
1000
0001
0100
0001
0100
0001
0130
0001
0100
0001
0100
0001
0100
0001
0100
0002
,
0203
0000
0000
0000
,
0000
0000
0000
0000
0000
0000
0000
0000
0000
0300
0000
0000
0000
0000
0000
0000
0000
0000
0000
0000
0000
0000
0000
0000
0000
0000
0000
0000
0000
0000
0000
0000
;
